私は、顔が、可愛い。

ポンコツかつ複雑なうえしゃまと、年下なのにお母さんポジションのみにゃみの
掛け合いは、もうスタッフもどこへ向かっているのかわからなくなっています!
新規録りおろし回ではサリー先生役の豊口めぐみさんをゲストにお招きし、
面白8割、まじめ2割の絶妙な回に・・・!?このCDでしか聴けない音源、必聴です!!!

 [収録内容]
DISC1: 新規録りおろし音源を収録(オーディオCD)
DISC2: 過去配信回第21回〜第30回を MP3にて収録(データCD-ROM)

 [パーソナリティ]
上田麗奈(関谷なる役)、田中美海(ハナ・N・フォンテーンスタンド役)

 [録りおろしゲスト]
豊口めぐみ(サリー先生役)

 [商品番号]HBKM-0042

©浜弓場 双・芳文社/ハナヤマタ製作委員会 ©HiBiKi Radio Station

【発売日】2015/4/29
※商品の発送は発売日以降となります。
※こちらの商品と別の商品を一緒にご注文頂いた場合、
 発送は発売日が後のものと一緒にお送りさせて頂いております。ご了承ください。

【HiBiKi EC SHOPオリジナル特典】
・本日のつぶやき 特選集(AUDIO CD)

Exact Audio Copy V1.0 beta 3 from 29. August 2011

EAC extraction logfile from 17. May 2015, 12:49

上田麗奈、田中美海 / ラジオCD「ラジオ ハナヤマタ~校内放送、しませんか?」Vol.3 HiBiKi EC SHOP! 特典CD 本日のつぶやき 特選集

Used drive : SlimtypeDVD A DS8A8SH Adapter: 1 ID: 0

Read mode : Secure
Utilize accurate stream : Yes
Defeat audio cache : Yes
Make use of C2 pointers : No

Read offset correction : 6
Overread into Lead-In and Lead-Out : No
Fill up missing offset samples with silence : Yes
Delete leading and trailing silent blocks : No
Null samples used in CRC calculations : Yes
Used interface : Native Win32 interface for Win NT & 2000

Used output format : Internal WAV Routines
Sample format : 44.100 Hz; 16 Bit; Stereo

TOC of the extracted CD

Track | Start | Length | Start sector | End sector
———————————————————
1 | 0:00.00 | 2:02.51 | 0 | 9200
2 | 2:02.51 | 1:45.47 | 9201 | 17122
3 | 3:48.23 | 2:07.05 | 17123 | 26652
4 | 5:55.28 | 1:56.07 | 26653 | 35359
5 | 7:51.35 | 2:23.05 | 35360 | 46089
6 | 10:14.40 | 2:17.17 | 46090 | 56381
7 | 12:31.57 | 3:00.22 | 56382 | 69903
8 | 15:32.04 | 1:56.15 | 69904 | 78618
9 | 17:28.19 | 1:59.14 | 78619 | 87557
10 | 19:27.33 | 2:34.45 | 87558 | 99152
11 | 22:02.03 | 2:31.40 | 99153 | 110517
12 | 24:33.43 | 2:06.20 | 110518 | 119987
13 | 26:39.63 | 3:29.38 | 119988 | 135700
14 | 30:09.26 | 2:50.58 | 135701 | 148508
15 | 33:00.09 | 2:54.35 | 148509 | 161593

Range status and errors

Selected range

Filename E:\待删\ラジオCD「ラジオ ハナヤマタ~校内放送、しませんか?」Vol.3 HiBiKi 特典CD.wav

Peak level 100.0 %
Extraction speed 4.2 X
Range quality 100.0 %
Copy CRC 6C939CA4
Copy OK

No errors occurred

AccurateRip summary

Track 1 not present in database
Track 2 not present in database
Track 3 not present in database
Track 4 not present in database
Track 5 not present in database
Track 6 not present in database
Track 7 not present in database
Track 8 not present in database
Track 9 not present in database
Track 10 not present in database
Track 11 not present in database
Track 12 not present in database
Track 13 not present in database
Track 14 not present in database
Track 15 not present in database

None of the tracks are present in the AccurateRip database

End of status report

—- CUETools DB Plugin V2.1.3

[CTDB TOCID: kE0YtBzVJGS5nbyNj2W3jnN0Bhw-] disk not present in database, Submit result: kE0YtBzVJGS5nbyNj2W3jnN0Bhw- has been uploaded

==== Log checksum 46FA3563170E27764C0C26248C71E06C2DD48E5E560D06721A0DE03AE84CB518 ====

Exact Audio Copy V1.0 beta 3 from 29. August 2011

EAC extraction logfile from 17. May 2015, 14:02

上田麗奈、田中美海、豊口めぐみ(ゲスト) / ラジオCD「ラジオ ハナヤマタ~校内放送、しませんか?」Vol.3

Used drive : SlimtypeDVD A DS8A8SH Adapter: 1 ID: 0

Read mode : Secure
Utilize accurate stream : Yes
Defeat audio cache : Yes
Make use of C2 pointers : No

Read offset correction : 6
Overread into Lead-In and Lead-Out : No
Fill up missing offset samples with silence : Yes
Delete leading and trailing silent blocks : No
Null samples used in CRC calculations : Yes
Used interface : Native Win32 interface for Win NT & 2000

Used output format : Internal WAV Routines
Sample format : 44.100 Hz; 16 Bit; Stereo

TOC of the extracted CD

Track | Start | Length | Start sector | End sector
———————————————————
1 | 0:00.00 | 59:59.06 | 0 | 269930

Range status and errors

Selected range

Filename E:\待删\ラジオCD「ラジオ ハナヤマタ~校内放送、しませんか?」Vol.3.wav

Peak level 95.0 %
Extraction speed 4.8 X
Range quality 100.0 %
Copy CRC 57A313F2
Copy OK

No errors occurred

AccurateRip summary

Track 1 not present in database

None of the tracks are present in the AccurateRip database

End of status report

—- CUETools DB Plugin V2.1.3

[CTDB TOCID: vk3efPei6ztaVXB2LPVeA37w9Wg-] found, Submit result: vk3efPei6ztaVXB2LPVeA37w9Wg- has been submitted
[e83769cf] (2/2) No match

==== Log checksum 0FCE9D3DBAF895A148B631E8EB847EDDB49926ACB13CFD7D1517E370E0E57EF9 ====

ラジオ ハナヤマタ~校内放送、しませんか?

2015-05-24

岭上菊花@astost

1.1GB / RAR / 提取:zh73

关于

如百度分享中没有文件,说明正在上传中....请耐心等待 请用winrar5.0+解压