登录信息
CD (2015/10/21)
光碟数目: 1
フォーマット: Single, Maxi
レーベル: ポニーキャニオン
収録時間: 16 分
ASIN: B013JFYEVI
EAN: 4988013400085

曲目リスト

1. Light for Knight
2. スマイリウム
3. Light for Knight [Instrumental]
4. スマイリウム [Instrumental]

产品描述
内容介绍
三森すずこソロプロジェクト第3章!
10月からの放送のTV动画「ランスアンドマスクス」(TBS)のオープニング主題歌が決定!

■前作2ndalbum『Fantasic Funfair』では、オリコンalbum週間チャートで自身最高記録となる6位を記録!
まだまだ快進撃がとまらない三森すずこのソロアーティストとして第5弾目Single!

■10月クールから放送を開始する动画『ランス・アンド・マスクス』(ぽにきゃんBOOKSより轻小说発売中)OP主題歌に決定。
三森本人は同作品内でアリス・クリーヴランド役の声優も担当。

■今回はアーティスト三森すずこの新たな一面となる疾走感溢れる爽快チューン!
力強くも優しい歌声で作品テーマに沿った二人の淡い恋物語や騎士道を表現。

[内容解説]
TV动画「ランス・アンド・マスクス」作品情報
スタッフ
原作・系列構成・脚本:子安秀明
原作イラスト:茨乃
監督:イシグロキョウヘイ
角色デザイン・総作画監督:大田謙治
美術監督:伊東広道
色彩設定:歌川律子
撮影監督:関谷能弘
編集:三嶋章紀
音響監督:本山哲
音響制作:ダックスプロダクション
动画ーション制作:Studio五組
※2015年秋よりTBS、BS-TBSほかにて放送開始予定。

[発売元]ポニーキャニオン
メディア掲載评论ほか
三森すずこソロプロジェクト第3章!自身も同作品内でアリス・クリーヴランド役を担当する2015年10月から放送のTV动画『ランスアンドマスクス』のオープニング主題歌が決定!今回はアーティスト三森すずこの新たな一面となる疾走感溢れる爽快チューン!力強くも優しい歌声で作品テーマに沿った二人の淡い恋物語や騎士道を表現。 (C)RS

——————————————————————————————-
Scanned and ripped by ksxg from KaiSa Project(@astost@TSDM@U2)
严禁用作任何商业用途,此档只做搅流试听之用,请于24h后删除
——————————————————————————————-

原帖地址:http://www.astost.com/bbs/read.php?tid=10989208,已征得原自抓者同意转载
如需转载和使用,请联系ksxg@astost@TSDM@U2
Please PM ksxg@astost@TSDM@U2 for his approval before you repost or transcode for other usage IN ADVANCE.

00:00/00:00

Exact Audio Copy V1.0 beta 3 from 29. August 2011

EAC extraction logfile from 28. October 2015, 13:19

三森すずこ / Light for Knight

Used drive : MATSHITADVD-R UJ-898 Adapter: 1 ID: 0

Read mode : Secure
Utilize accurate stream : Yes
Defeat audio cache : Yes
Make use of C2 pointers : No

Read offset correction : 102
Overread into Lead-In and Lead-Out : No
Fill up missing offset samples with silence : Yes
Delete leading and trailing silent blocks : No
Null samples used in CRC calculations : Yes
Used interface : Native Win32 interface for Win NT & 2000

Used output format : User Defined Encoder
Selected bitrate : 1024 kBit/s
Quality : High
Add ID3 tag : No
Command line compressor : C:\Program Files (x86)\Exact Audio Copy\Flac\flac.exe
Additional command line options : -8 -V -T “ARTIST=%artist%” -T “ALBUM=%albumtitle%” -T “DATE=%year%” -T “TRACKNUMBER=%tracknr%” -T “GENRE=%genre%” -T “PERFORMER=%albuminterpret%” -T “COMPOSER=%composer%” %haslyrics%–tag-from-file=LYRICS=”%lyricsfile%”%haslyrics% -T “ALBUMARTIST=%albumartist%” -T “DISCNUMBER=%cdnumber%” -T “TOTALDISCS=%totalcds%” -T “TOTALTRACKS=%numtracks%” -T “COMMENT=EAC V1.0 beta 3, Secure Mode, Test & Copy, AccurateRip, FLAC -8” %source% -o %dest%

TOC of the extracted CD

Track | Start | Length | Start sector | End sector
———————————————————
1 | 0:00.00 | 3:32.19 | 0 | 15918
2 | 3:32.19 | 4:25.30 | 15919 | 35823
3 | 7:57.49 | 3:32.17 | 35824 | 51740
4 | 11:29.66 | 4:23.15 | 51741 | 71480

Range status and errors

Selected range

Filename C:\EAC\[ksxg@KaiSa Project]三森すずこ – Light for Knight\三森すずこ – Light for Knight.wav

Peak level 100.0 %
Extraction speed 3.5 X
Range quality 100.0 %
Test CRC 5A6F62BE
Copy CRC 5A6F62BE
Copy OK

No errors occurred

AccurateRip summary

Track 1 not present in database
Track 2 not present in database
Track 3 not present in database
Track 4 not present in database

None of the tracks are present in the AccurateRip database

End of status report

==== Log checksum D6C56BC859A304D7224663760C1932E6A152C348575A3970C306BBB8D241FA8B ====

Light for Knight

2015-10-31

KaiSa Project

RAR / 247MB / 提取:98jx

关于

如百度分享中没有文件,说明正在上传中....请耐心等待 请用winrar5.0+解压