登録情報
CD (2016/5/11)
ディスク枚数: 2
フォーマット: Single, CD+DVD, Limited Edition
レーベル: SME
収録時間: 19 分
ASIN: B01D1A8ROG
EAN: 4547557043402

商品の説明
メディア掲載レビューほか
Aimer(エメ)の通算9枚目にして、2016年最初のシングル。表題曲「ninelie(読み:ナインリィ)」は、同年4月より放送の“ノイタミナ”アニメ『甲鉄城のカバネリ』のエンディング・テーマとなっており、同アニメのサウンドトラックを手掛ける劇伴作家・澤野弘之が楽曲提供・プロデュースを担当。さらに、同アニメのオープニング・テーマを担当するEGOISTからchellyがゲスト・ヴォーカルとして参加。Aimer×chelly×澤野弘之という、夢のコラボレーションを実現した注目作。 (C)RS

曲目リスト
ディスク:1
1. ninelie
2. Through My Blood
3. スピカ
4. ninelie (TV size)
5. ninelie (instrumental)

00:00/00:00


转载请注明出处

Exact Audio Copy V1.1 from 23. June 2015

EAC extraction logfile from 21. May 2016, 22:12

Aimer / ninelie

Used drive : hp DVD-RAM UJ8D1 Adapter: 1 ID: 0

Read mode : Secure
Utilize accurate stream : Yes
Defeat audio cache : Yes
Make use of C2 pointers : No

Read offset correction : 6
Overread into Lead-In and Lead-Out : No
Fill up missing offset samples with silence : Yes
Delete leading and trailing silent blocks : No
Null samples used in CRC calculations : Yes
Used interface : Native Win32 interface for Win NT & 2000

Used output format : Internal WAV Routines
Sample format : 44.100 Hz; 16 Bit; Stereo

TOC of the extracted CD

Track | Start | Length | Start sector | End sector
———————————————————
1 | 0:00.00 | 4:20.20 | 0 | 19519
2 | 4:20.20 | 4:04.14 | 19520 | 37833
3 | 8:24.34 | 5:10.43 | 37834 | 61126
4 | 13:35.02 | 1:32.72 | 61127 | 68098
5 | 15:07.74 | 4:20.47 | 68099 | 87645

Range status and errors

Selected range

Filename D:\Entertainment\Music\Aimer – ninelie\Aimer – ninelie.wav

Peak level 99.3 %
Extraction speed 3.5 X
Range quality 100.0 %
Test CRC 447C58D5
Copy CRC 447C58D5
Copy OK

No errors occurred

End of status report

—- CUETools DB Plugin V2.1.6

[CTDB TOCID: H2uvShzTpqGnLy4DLWicTTV_6zM-] found
Submit result: H2uvShzTpqGnLy4DLWicTTV_6zM- has been confirmed
Track | CTDB Status
1 | (73/73) Accurately ripped
2 | (73/73) Accurately ripped
3 | (73/73) Accurately ripped
4 | (73/73) Accurately ripped
5 | (73/73) Accurately ripped

==== Log checksum E878A92DE307E5F4F55D4A42B6F1351FC5CABEE36ECD95A151149CA6F5778873 ====

「ninelie」/Aimer with chelly(EGOIST)

2016-06-08

Amazon_JP

RAR / 148MB / 提取:dxac

关于

如百度分享中没有文件,说明正在上传中....请耐心等待 请用winrar5.0+解压